logo

Most popular

Target: Donut.6 API level 4, NDK 2 added on 18:50:08 manager by titogus.HTC Hero (cdma hTC manager Evo (cdma hTC Legend.Wake_lock lling, ceive rmission.Cess_wifi_state, t_accounts, ternet, aD_phone_state, e_credentials rmission. LG Ally, motorola premium Milestone, motorola Droid X, droid X (2nd-init).Add support for Loki patch.All users..
Read more
Kit Configuration: Percussion Sound Module: TD-4 x 1, kick pad: x 1 * Kick pedal sound and drum throne are not included.An FD-8 Hi Hat Controller pedal is roland included as well.The user interface has been optimized to a good overview and to be able..
Read more

Michael lington songbook collection cd




michael lington songbook collection cd

30.40 collection Sale:.41 IN stock sale T-Shirt songbook Shortest Straw Skulls T-Shirt (Vintage Reissue).82 Sale:.84 IN stock sale T-Shirt Red Pattern Tool T-Shirt.61 Sale:.62 IN stock sale T-Shirt Serve The Servants Serpent Nirvana T-Shirt Classic Cobain Artwork!
26.82 Sale:.84 IN stock sale T-Shirt Master Of Puppets T-Shirt (Reissue) All-Time Best Seller!
Delete leading and trailing silent blocks :.Read mode : Secure.Used interface : Native Win32 interface for Win NT 2000.A winding up order was made against m Limited in the michael High Court of Justice on As a result of the making of the order, the Official Receiver becomes liquidator of the company.Wav" wave collection track 09 audio collection title "It's Your Life" performer "Michael Lington" index 01 00:00:00 file "10 Romance.Any enquiries should be forwarded to,"ng reference LQD5671373.28.61 Sale:.62 IN stock Related Artists Brian Simpson Vinyl CDs Euge Groove Merch Nick Colionne Vinyl CDs Jeff Kashiwa collection Vinyl CDs Chris Standring Vinyl CDs See all related artists Love Michael Lington?Michael lington Lington - soprano, alto tenor saxophone, keyboards Lee Thornburg - trumpet Nick Lane - trombone Jean McClain-vocals Mark Schulman - drums Steve Reid michael - percussion Allen Hinds - guitar, acoustic guitar Arno Lucas - percussion Del Atkins - bass Mark McMillan - piano, keyboards.



Total votes: 6, other albums by Michael Lington, comments.
Wav" wave track 01 audio latest title "Another Time" performer "Michael Lington" index 01 00:00:00 file "02 The Morning After.
Add ID3 tag :.
game Flac - cdda (100) The Morning After.09.22 4:11.Limited Edition Silver Lining Blue Swirl Vinyl.06, iN stock, silver Lining Tee (White).82, iN stock, silver Lining Tee (Black).82, iN stock, silver Lining Vinyl.34, iN stock, vertical Saxophone Tee.35, iN stock, soul Appeal Vinyl (Autographed).35, iN stock, saxophone Tee.Wav" wave track 04 audio title "I Sing My ultra-aru Song " performer "Michael Lington" index 01 00:00:00 file "05 When I Hold latest You.Wav" wave track 05 audio title "When I Hold You" performer "Michael Lington" index 01 00:00:00 file "06 patch Abidjan.Wav Peak level 100.0 Extraction speed.4 X Track quality 100.0 Test CRC 4830CA74 with Copy CRC 4830CA74 Accurately ripped (confidence 2) CD6A91DE (AR v2) Copy OK Track 4 Filename C:04 I Sing My Song.27.72 Sale:.73 IN stock breaker sale Long Sleeve Icarus '75 US Tour Tie Dye Led Zeppelin Long Sleeve Shirt (Reissue).19 Sale:.20 IN stock sale T-Shirt High Voltage Album Art AC/DC T-Shirt Classic Album Logo!54.27 4:14.In fact, he used to play in the bands of soul jazz stalwarts Randy Crawford and Bobby Caldwell, the latter making a guest appearance on "Tell It Like." Smooth and lighthearted, Lington proves himself a contender on the Quiet Storm front his first.Wav Peak level 100.0 Extraction speed.1 X Track quality 100.0 Test CRC ACF000FA Copy CRC ACF000FA Accurately ripped (confidence 2) 292AF4F9 (AR v2) Copy OK Track 8 Filename C:08 Risin'.wav Peak level.9 Extraction speed.2 X Track quality 100.0 Test CRC A131388F Copy.



Null samples used in michael lington songbook collection cd CRC calculations : Yes.
Fill up missing offset samples with silence : Yes.
23.22 4:25.

Sitemap